terminator genisys (2015) film online - lektor pl

 

 

 

 

Terminator Genisys (2015). other sizes: 1034x1500 / 1753x2544 Poster design by BLT Communications, LLC.Internet Movie Poster Awards - One of the largest collections of movie poster images online. » Ultimate Justice 2017 Watch Online.Loading Related Movies For Terminator Genisys 2015. Ultimate Justice 2017. Atomic Blonde 2017. Information about the torrent Terminator Genisys (2015) m1080p [Lektor i Napisy PL].Terminator.Genisys.2015.MULTi.miniHD.1080p.AC3.BDRip.h264-KSQ.

mkv4.0 GB torrent search. Download: (mona pobiera zamiennie z serwerw). Code: http://catshare.net/DBzuWFy3hESWJWMs/ Terminator.Genisys.2015.PL.BDRip.XviD-KiT.avi. Musody.com. Video online. Terminator: Genisys (2015) Lektor PL. Added 2 years ago Uploaded by lidia70.

Mrony wiatr. 04 Agenci NCIS Nowy Orlean - NCIS New Orleans S02E04 I Do PL - Avatar - Legenda Aanga - Ksiga III - E07. 73 Samobjca. Terminator Genisys lektor pl torrenty.Terminator Genisys film 2015 online. Watch Terminator Genisys 2015 YIFY Movies Online. Terminator Genisys is the fifth film in the Terminator series, and will act as a retcon to the, Arnold Schwarzenegger, Emilia Clarke, Jai Courtney.Free movie Terminator Genisys with English Subtitles. Terminator: Genisys (Previously Terminator: Genesis) is the fifth instalment in the Terminator franchise scheduled for release on July 1st 2015.The latest news on the upcoming Terminator: Genisys movie. Terminator Genisys (2015) Watch Movies Online Free on 1080PMOVIE.COM When John Connor (Jason Clarke), chief of the human resistance, sends Sgt. Kyle Reese (Jai Courtney) again to 1984 to guard Sarah Connor (Emilia Clarke) an. Terminator: Genisys (2015). Info: reyseria: Alan Taylor scenariusz: Laeta Kalogridis, Patrick Lussier gatunek: Akcja, Sci-Fi produkcja: USA premiera: 1 lipca 2015 (Polska) 21 czerwca 2015Lossy Stream size : 345 MiB (11) Title : Lektor PL AC3 5.1 Language : Polish Default : Yes Forced : No. Movies: Terminator Genisys Director: Alan Taylor Cast: Arnold Schwarzenegger, Emilia Clarke, Jai Courtney Production Co: Genres: Action, Adventure, Sci-Fi, Thriller Runtime: 126 min Country: USA Release Date: 2015. Watch Terminator Genisys Online. terminator genisys full movie with English subtitle. Stars: Emilia Clarke, Arnold Schwarzenegger, Jason Clarke.Release: 2015-07-01. Synopsis: When John Connor (Jason Clarke), leader of the human resistance, sends Sgt. Terminator Genisys (2015) 2015 (tt1340138) When John Connor (Jason Clarke), leader of the human resistance, sends Sgt. Kyle Reese (Jai Courtney) back to 1984 to protect Sarah Connor (Emilia Clarke) and safeguard the future, an unexpected turn of events creates a fractured time- line. Terminator Genisys 2015 Full Movies Hd arnold Schwarzenegger Jason Clarke Emilia Clarke. F. Terminator Genisys 2015 Hindi Trailer Playmovie.co.Terminator Genisys 2015 Official Movie Interview Arnold Schwarzenegger. Terminator: Genisys 2015 [480p.BRRip.XviD.AC3-azjatycki] [5:1] [ENG / Lektor PL] [A To download this torrent, you need a BitTorrent client: Vuze or BTGuard. Download this torrent Download using Magnet Link.Bez Limitw W HD / Lektor PL Dailymotion video Mp3 Mp4 Flv 3gp Webm Hd 1080p 720p 480p 360p 240p 144p Terminator: Genisys (2015) Cay Film Online PoUwaga Z Racji Tego, e Dailymotion Blokuje Pene Filmy Terminator: Genisys Jest Od Teraz Do Zobaczenia Na Innej Stronie, Ktra Nie film online pl, film cda, film recenzja, forum, film zwiastun, film pl, ekino, exsite, exsite. pl, download, darkwarez, dvd, dvdrip, Jak zatrzymac slub peb doMinionki 2015, 2015, online, 2015 online, film film , 2015 W glowie sie nie miesci lektor online , gdzie obejrze Minionki 2015, gdzie obejrze Terminator Genisys (2015) GanzerFilm German HD-Online - Duration: 1:50:54. Tape Kecut 694 views.Terminator: Genisys TRAILER 1 (2015) - Arnold Schwarzenegger Action Movie HD - Duration: 2:32. Movieclips Coming Soon 4,741,700 views. Posted on October 15, 2015 in Movies » Action , verified torrent.Scrape History ( seeds peers ). Internal Files. [aletorrenty.pl] Terminator Genisys 2015 [720p.BRRip.XviD.AC3-azjatycki] [5.1] [Lektor PL] [AT-TEAM]. When John Connor (Jason Clarke), leader of the human resistance, sends Sgt. Kyle Reese (Jai Courtney) back to 1984 to protect Sarah Connor (Emilia Clarke) an Source: V-Terminator.Genisys.2015.1080p.3D.BluRay.AVC.TrueHD.7.1.Atmos-RARBG A- Terminator Genisys (2015) 1080p BluRay DTS-HD MA 7.1 x264-LEGi0N Lektor PL5 months. Terminator Genisys 2015 TRUEFRENCH TS HD MD XviD Mystic avi. Add note Popular. Terminator: Genisys (2015) PL.TS.X264.AC3-TiFF / Lektor PL [IVO]. Tamil Movie Watch Online Terminator Genisys (2015) Tamil Dubbed Movie HD 720p Watch Online Tamil Dubbed Movies Online Free Download. Watch movies online free stream: Terminator Genisys (2015).Free Films Org Based on third-party critic ratings reviewed For your security and privacy, we are not using personal info, like your name, email address, password, or phone number. Watch Free Movies Online Movie4u.[aletorrenty.pl] Terminator Genisys 2015 [720p.BRRip.XviD.AC3-azjatycki] [5.1] [ Lektor PL] [AT-TEAM] AT-TEAM Read iNFO.txt Free movie Terminator Genisys - 2015 with English Subtitles.Watch HD Movies Online For Free and Download the latest movies. For everybody, everywhere, everydevice, and everything Devil-torrents.pl - najlepsza strona w sieci - uprzejma zaloga - shoutbox I radio do woli - filmy on line do wyboru zapraszam!!!.mp415.41 mb.Terminator.Genisys.2015.DVDRip.x265.HUN.Read.Nfo-LION.torrent1.8 GB. Terminator.Genisys.cover-sonywwo.png [351.78 KB]. Interesting Tweets. Please Check Your Email SOON Terminator Genisys 2015.Watch Online: How To Mix Subtitles In Movies : 1- Download Media Player Classic 32X or 64X 2- Download subtitle from our site or any subtitle you need from Here or Here 3- Open video by Media Player Classic (Drag Drop film to Watch Terminator Genisys full movie online, Terminator Genisys movie by Alan Taylor, watch Terminator Genisys 2015 in HD quality. [ www.CpasBien.pw ] Terminator.Genisys.2015.FRENCH.BDRip.XviD-GLUPS.avi.[AgusiQ-TorrentS.pl] Terminator.Genisys.2015.PL-KLiO [AgusiQ]. Terminator.Genisys.2015.PL.720p.

BRRip.XviD.AC3-azjatycki.avi 3.55 GB. Sample.avi 23.77 MB. Hash Code.FPS: 23.976. Czas trwania: 125 min. Jzyk: angielski / lektor PL. Torrent zawiera sample. watchnewmovie.net. watch movies online free.watch Terminator Genisys 2015 online free John Connor sends Kyle Reese back in time to protect Sarah Connor, but when he arrives in 1984, nothing is as he expected it to be. Terminator Genisys (2015). When John Connor (Jason Clarke), leader of the human resistance, sends Sgt. Kyle Reese (Jai Courtney) back to 1984 to protect Sarah Connor (Emilia Clarke) and safeguard the future, an unexpected turn of events creates a fractured time- line. Action, adventure. Director: Alan Taylor. You are watching the movie Terminator Genisys 2015 produced in USA belongs in Category Action, Adventure , with duration 126 Min , broadcast at KingMovies.Is, Director by Alan Taylor, When John Connor, leader of the human resistance, sends Sgt. Posted by Putlocker Under Action, Adventure, Movies, New Releases, Sci-Fi. Watch Terminator Genisys Online Free Streaming 2015 Full Movie on Putlocker and 123 movies. Terminator Genisys (2015) Full Movie, When John Connor (Jason Clarke), leader of the human resistance, sends Sgt.Free movies online without downloading , high quality at m4ufree.com . Terminator Genisys online sa prevodom, filmovi sa prevodom, milversite, besplatno gledanje, prevedeni filmovi, online movie, online movie with subtitles, onlajn filmovi, filmovi onlajn, online filmovi sa prevodom, online filmovi2 years, 6 months ago. Odlian film.vaka je brat moj bio i ostao. Terminator Genisys. IMDB Rating. 9.0/10. Watch Terminator Genisys (2015) Online. Terminator.Genisys.cover-sonywwo.png352 KB. INFO.txt4,180 B. Watch terminator genisys 2015 lang:pl streams online. Click for organised searchterms hoster selection.(2015) Terminator Genisys 3D Terminator Genisys [LEKTOR] :: 6bddf014f86e702bc7e8dd85715d1193 view easyshare to mp4. Watch Terminator Genisys (2015) Online Free Full Movie Putlocker. When John Connor, leader of the human resistance, sends Sgt. Kyle Reese back to 1984 to protect Sarah Connor and safeguard the future, an unexpected turn of events creates a fractured timeline. Best online movies and TV series in high quality HD - 100 free.Terminator Genisys (2015) - Action ( episodes). sort. Air Date. Terminator Genisys (2015). Category: Movies Rating: 6.9 Downloads: 79037 Download Torrent Download Subtitle. Terminator Genisys Terminator Genisys is the fifth film in the Terminator series, and will act as a retcon to the series.Release: 2015.Trailer: Terminator Genisys. A wide selection of free online movies are available on 123 Movies . Science-Fiction Terminator: Genisys (2015) - Filmweb www.filmweb.pl/film/ Terminator:Genisys-2015-512784 Terminator: Genisys (2015) - BoxLossy Stream size : 345 MiB (11) Title : Lektor PL AC3 5.1 Language : Polish Default : Yes Forced : No. Devil-torrents.pl - najlepsza strona w sieci - uprzejma zaloga - shoutbox I radio do woli - filmy on line do wyboru zapraszam!!!.mp415.41 mb.Terminator.Genisys.2015.DVDRip.x265.HUN.Read.Nfo-LION.torrent1.8 GB. All New Urdu , Hindi, Punjabi and Hollywood Movies. Terminator Genisys ( 2015).The film was released by Paramount Pictures and Skydance Productions on July 1, 2015. In addition to the standard digital format, it was released in Real 3D and IMAX 3D. Marsjanin Cay Film Online HD | Lektor PL.Terminator Genisys - Official Trailer - Terminator Genisys - Facebook. 1874 times, 02:19. Quand le TERMINATOR 2015 affronte le TERMINATOR 1984 (extrait Terminator Genisys). Terminator Genisys (2015). IMDB Rating: 6.5/10 from 190,003 votes.Stars: Arnold Schwarzenegger, Emilia Clarke, Jai Courtney, Jason Clarke. Synopsis: Watch Terminator Genisys online free.

related notes


Copyright ©